#TITLE:You dont know what;
#SUBTITLE:~D-turbo original~;
#ARTIST:DJ Sharpnel;
#TITLETRANSLIT:;
#SUBTITLETRANSLIT:;
#ARTISTTRANSLIT:;
#CREDIT:;
#BANNER:ydkt banner.jpg;
#BACKGROUND:ydkt.jpg;
#LYRICSPATH:;
#CDTITLE:dtittle.png;
#MUSIC:DJ Sharpnel - MAD BREAKS - 08 - YOU DONT KNOW WHAT.mp3;
#OFFSET:-0.215;
#SAMPLESTART:78.000;
#SAMPLELENGTH:20.000;
#SELECTABLE:YES;
#BPMS:0.000=211.520;
#STOPS:;
#BGCHANGES:;
// cache tags:
#FIRSTBEAT:53.500;
#LASTBEAT:1013.000;
#SONGFILENAME:Songs/Chilean Keyboard Megapack 3/(D-turbo) You dont know what/you dont know what.sm;
#HASMUSIC:1;
#HASBANNER:1;
#MUSICLENGTH:292.866;
// end cache tags

//---------------dance-single - ----------------
#NOTES:
     dance-single:
     :
     Challenge:
     11:
     1.000,1.000,1.000,0.130,0.087,1599.000,441.000,38.000,0.000,1.000:
0000
0000
0000
0000
,
0000
0000
0000
0000
,
0000
0000
0000
0000
,
0000
0000
0000
0000
,
0000
0000
0000
0000
,
0000
0000
0000
0000
,
0000
0000
0000
0000
,
0000
0000
0000
0000
,
0000
0000
0000
0000
,
0000
0000
0000
0000
,
0000
0000
0000
0000
,
0000
0000
0000
0000
,
0000
0000
0000
0000
,
0000
0000
0000
1001
0000
0000
0000
0110
,
0000
0000
1000
0001
0000
0100
0000
1010
,
0000
0100
0000
1000
0000
0001
0000
0110
,
0000
1000
0000
0110
0001
0000
1000
0101
,
0000
0010
0000
1000
0000
0100
0000
1010
,
0000
0010
1000
0100
0000
0001
0000
1100
,
0000
0010
0000
0010
0000
1000
0000
0100
,
0000
0010
0000
0001
0100
0000
0010
1000
,
0000
0100
0000
0010
0000
0110
0010
1000
,
0100
1001
0010
0100
0010
1001
0100
1000
,
0010
1001
0110
0001
0100
1010
0101
0010
,
0100
1001
0010
0100
0000
0010
0000
0100
,
0000
0010
0000
0100
0000
1000
0100
0010
,
0100
1010
0100
1000
0010
0101
0010
0100
,
0010
1001
1010
1000
0100
1001
1010
0000
,
0000
0010
0000
1001
0000
0000
0000
0000
,
0000
0000
0000
1001
0010
1001
0000
1010
,
0100
1001
0000
0010
1000
0100
0010
0100
,
0010
1001
0000
1001
0100
1001
0000
0010
,
0100
1001
0000
0010
0001
0100
0010
1000
,
0100
1010
0000
1001
0100
0010
1000
0100
,
0010
0001
0010
1100
0000
1001
0000
0110
,
0000
1010
0000
0101
0000
0011
0000
1100
,
0000
1001
0000
0100
0000
0010
0000
1000
,
0000
0000
0100
0000
0000
0000
1001
0010
0100
0010
1001
0000
0000
0000
1001
0100
,
0010
0100
1001
0000
0000
0000
1001
0100
0010
1000
0100
0010
0001
0010
0100
0010
,
1000
0100
0011
0000
0000
0000
1010
0000
0100
0000
1010
0000
0000
0000
0101
0000
,
0010
1100
0000
0010
0100
0010
1000
0100
,
0010
1001
0100
0010
1000
0100
0010
0001
,
0100
0010
1000
0100
0010
0001
0010
1000
,
0100
0010
0000
1010
0100
0011
0000
0101
,
0010
1100
0000
2002
3003
0000
0000
0100
,
0100
1001
0100
0011
1000
0101
0010
1100
,
0010
1100
0001
0110
0100
1001
0010
1100
,
0010
0000
1100
0000
0001
0010
0100
0000
0010
0000
1001
0000
0100
0000
0010
0000
,
1000
0100
1000
0000
0100
0000
0010
0000
0001
0000
0010
0000
1000
0000
0100
0000
,
0010
0000
1000
0000
0100
0010
0100
0000
1000
0000
0100
0000
0010
0000
1000
0000
,
0100
0010
0100
0000
0010
0000
0100
0000
1000
0000
0100
0000
0010
0000
0100
0000
,
0001
0010
0100
0000
1000
0010
0100
0000
0010
0000
0100
0000
0010
0000
0100
0000
,
0010
0100
0001
0000
0010
0000
0100
0000
0010
0000
0001
0000
0010
0000
1000
0000
,
0100
0110
0000
1001
0100
1001
0000
1010
,
0100
1001
0000
0100
1000
0100
0010
0100
,
0001
1010
0000
0101
0010
1100
0000
0110
,
1000
0101
0000
1000
0010
1000
0010
0001
,
0100
1010
0000
1001
0100
0010
1000
0001
,
0100
0010
1000
0100
0010
0001
0010
1000
,
0010
0100
0000
1000
0000
0100
0000
0010
,
0000
0100
0000
0001
0000
1000
0000
0100
,
0000
0010
0000
2002
3003
0000
0000
0110
,
0000
0000
0000
1001
0000
0000
0110
0000
,
0000
1010
0000
0011
0100
1010
0000
1001
,
0001
0110
0001
1010
0001
0000
1100
0000
,
0000
0110
0000
0000
0000
1010
0001
0110
,
0001
1010
0010
0101
0000
0011
1000
0000
,
0000
1010
0100
1001
0001
0010
0100
0010
,
1000
0010
0100
0001
1000
0100
0010
0001
,
0000
1010
0000
1001
0000
0110
0000
1001
,
0000
0110
0000
0101
0000
1100
0000
0011
,
0000
0000
0000
1100
0000
0110
0000
1001
,
0000
0110
0000
0011
0000
1100
0000
0101
,
0000
0000
0000
0011
0000
0110
0000
1100
,
0000
0110
0000
1100
0000
0101
0000
0011
,
0000
0110
0000
1100
0000
0011
0000
0110
,
0000
1100
0000
0110
0000
1001
0000
0220
,
0330
0000
0000
1000
0001
1000
0001
1000
,
0001
1000
0100
0010
0100
0010
0001
0100
,
0010
1000
0010
0100
0010
1000
0100
0010
,
0001
0000
1000
0000
0010
0000
0100
0000
1000
0100
1000
0000
0001
0000
0010
0000
,
1000
0000
0010
1000
0010
1000
0100
0000
0010
0000
0100
0000
1000
0000
0001
0000
,
0100
0010
1000
0001
0100
0010
1000
0010
,
0100
0001
0010
1000
0100
0010
0100
0001
,
0010
1000
0010
0100
1000
0010
0100
0001
,
0010
1001
0000
0110
1000
0011
1000
0110
,
0001
1010
0100
1001
0010
0101
1000
0110
,
0001
1010
0100
1010
0100
0011
0001
1100
,
0010
0000
0101
0000
1000
0000
0110
0000
0001
0010
1100
0000
0001
0000
0010
0000
,
1000
0000
0010
0001
0010
0001
1000
0000
0100
0000
0010
0000
1000
0000
0100
0000
,
0001
0010
0100
1000
0010
0100
0001
0010
,
1000
0010
0100
0001
0010
1000
0100
0010
,
0001
0100
0010
2002
0000
3003
0000
0000
,
0000
1001
0010
0101
0010
1100
0001
0110
,
0010
1001
0100
0011
0100
1010
0100
0011
,
1000
0101
0010
1001
0100
0011
1000
0011
,
0100
0000
1010
0000
0001
0000
0110
0000
0001
1000
0100
0000
0001
0000
0100
0000
,
1000
0000
0010
0100
0010
0100
1000
0000
0100
0000
0011
0000
1000
0000
1001
0000
,
0100
0011
1000
1100
0010
1001
0100
0011
,
1000
0101
0010
1001
0100
0011
1000
0110
,
0010
1001
0100
0011
0100
1010
0100
0001
,
0100
1000
0010
0101
1000
0110
0100
1001
,
0010
0110
1000
0011
0100
1001
0010
1100
,
0100
0011
0001
1100
0010
1001
0100
1010
,
0001
0000
0110
0000
0010
0000
1001
0000
0010
1000
0001
0000
0010
0000
0100
0000
,
0001
0000
1000
0001
0100
0001
1000
0000
0100
0000
1001
0000
0010
0000
1100
0000
,
0001
0110
0100
1001
0010
0100
0001
0100
,
0010
0100
1000
0010
0001
0100
0010
1000
,
0100
0010
0100
1000
0100
0010
0100
0000
,
0000
2002
3003
0110
0000
0000
0000
1001
,
0000
0000
0000
0110
0000
0000
1010
0000
,
0000
0101
0000
0011
1000
0110
0001
1100
,
0000
1010
0001
0110
0001
0000
1010
0000
,
0000
0000
0000
0000
0000
1010
1000
0110
,
0001
0110
1000
0101
0000
0110
1000
0000
,
0000
1100
0010
0101
0010
0011
0100
0011
,
1000
0011
0100
1001
0100
0000
1010
0000
,
0000
0101
1000
0101
0010
1100
0000
0000
,
0110
1001
0000
0110
0000
1010
0000
2002
,
3003
0010
0000
0100
0000
2002
3003
0000
,
0000
0010
0000
1000
0000
0010
0000
0100
,
0000
0001
0000
1000
0000
0010
0000
0100
,
0010
0001
0000
0020
0000
0230
0000
0320
,
0000
2030
0000
3200
0000
0320
0000
0032
,
0000
0203
0000
2300
0000
3020
0000
2032
,
0000
3003
0000
1000
1001
0100
0110
0010
,
0011
0001
0101
1000
1001
0100
0101
0010
,
0110
0001
0101
1000
1001
0100
0110
0010
,
0011
0001
0101
1000
1100
0100
0110
0010
,
0011
0001
0000
1100
0000
1100
0000
1001
,
0000
1001
0000
0011
0000
0011
0000
0101
,
0000
0101
0000
1000
0100
0010
0000
0100
,
1000
0100
0010
0001
0001
0001
0001
1000
,
1000
1000
1000
0100
1000
0110
0010
0001
,
1000
0011
0100
1000
0010
1100
0001
0010
,
0100
1001
0010
0100
0001
0110
1000
0010
,
0100
1010
0001
0100
1000
1010
0100
0001
,
0100
1001
0010
0100
0001
0110
1000
0010
,
0100
1001
0100
1000
0001
0010
0100
1000
,
0100
0010
1000
0002
0203
2300
3200
0300
,
0000
0100
1000
0100
0010
0000
1001
0000
,
0000
1000
0100
1000
0001
0100
0010
0100
,
1000
0010
0100
1000
0001
0100
1000
0001
,
0100
1000
0010
0100
0010
1000
0001
0010
,
0100
1000
0010
0100
0001
0010
0100
1000
,
0010
0100
0001
0010
0100
1000
0100
0001
,
1000
0100
0010
1000
0001
0010
0100
1000
,
0010
0100
0001
0100
0010
1000
0100
0010
,
0001
0100
0010
1000
0000
0100
0000
2002
,
0000
3003
0000
0100
1000
0110
0001
0010
,
0100
1001
0010
0100
0001
0110
1000
0100
,
0010
1001
0100
0010
1000
0011
0100
0001
,
0010
1100
0001
0010
0100
1001
0010
0100
,
0001
0110
1000
0100
0010
0101
1000
0100
,
0010
1001
0100
0010
0001
1010
0100
0010
,
0100
1010
0100
0001
0100
0011
1000
0100
,
0010
0101
1000
0100
0000
0010
0000
2002
,
3003
0000
0000
0101
1000
0011
1000
0000
,
0000
0110
1000
0001
1000
0011
0100
0000
,
0001
1100
0010
0100
0001
1001
0010
0000
,
0000
0101
1000
0010
0001
1100
0010
0000
,
0001
0110
0010
1000
0100
1001
0010
0000
,
0010
1100
0001
0100
0010
1001
0100
0000
,
0010
1100
0001
0100
0010
1100
0001
0000
,
0010
1001
0100
1000
0010
1100
0000
0001
,
0010
0100
1000
0010
0000
0010
0000
0010
,
0100
0010
0100
1000
0000
1000
0000
1000
,
0001
0100
0001
0010
0000
0010
0000
0010
,
0001
0100
0001
1000
0000
1000
0000
1000
,
0001
0100
0001
0010
0000
0010
0000
0010
,
0001
0100
0001
1000
0000
1000
0000
0100
,
0001
1000
0001
0100
0000
0100
0000
0100
,
0010
1000
0001
0100
0000
0100
0000
0010
,
0000
0001
0000
1001
0100
0010
0001
0000
,
0010
1100
0001
0010
0001
0010
0001
0000
,
1000
0110
0001
1000
0010
0100
0010
0000
,
0000
0011
0100
0001
1000
0010
0100
0000
,
0100
0001
1000
0101
0010
0001
0100
0010
,
1000
0010
0100
0001
0010
1000
0100
0001
,
0010
0100
1000
0010
0100
0001
0010
1000
,
0100
0001
0010
1100
0000
0100
0010
0000
,
0010
0100
0000
1000
0010
0100
0001
0010
,
1000
0100
0010
0001
0100
0010
1000
0010
,
0100
0001
0010
0100
1000
0010
0100
0001
,
0010
0100
1000
0001
0100
0010
0001
0010
,
0100
1000
0010
0100
0001
0010
0100
1000
,
0100
0010
0001
0010
0100
0010
1000
0100
,
0010
0001
0010
2002
0000
0000
0000
3003
,
0000
0000
0000
0000
,
0000
0000
0000
1001
0100
0011
1000
1100
,
0010
1100
0001
0110
0100
1001
0100
0011
,
0100
0000
0001
0000
0010
0001
0100
0000
1000
0000
0101
0000
0010
0000
1001
0000
,
0100
1001
0010
1100
0001
0110
0100
1001
,
0100
0000
0011
0000
1000
0100
0010
0000
0001
0000
0110
0000
1000
0000
0011
0000
,
0100
1001
0010
0110
1000
0011
0100
1001
,
0010
0000
0110
0000
1000
0001
0110
0000
0100
0000
1001
0000
0010
0000
1001
0000
,
0100
1001
0010
1100
0000
0110
0000
0110
,
0000
0000
1001
0000
0100
0010
0100
0000
1000
0000
0100
0000
0010
0000
0001
0000
,
1000
0010
0100
0001
0010
0100
1000
0010
,
0100
0000
0001
0000
0010
0100
1000
0000
0100
0000
0010
0000
1000
0000
0001
0000
,
0010
0100
1000
0100
0010
0100
1000
0001
,
0100
0000
0010
0000
0001
0010
0100
0000
1000
0000
0100
0000
0001
0000
0100
0000
,
0010
1000
0010
0100
0001
0010
1000
0010
,
0100
0000
0001
0000
0010
0100
1000
0000
0010
0000
0100
0000
0001
0000
0010
0000
,
1000
0100
0010
0001
0100
1000
0010
0100
,
0001
0100
0010
1000
0100
0010
0001
0100
,
0010
0000
0000
1010
0001
0100
0010
1000
,
0001
0110
0000
1010
0001
0100
0000
1001
,
0010
0100
0000
1010
0001
0100
0001
1010
,
0001
0110
0000
1000
0010
1100
0001
0110
,
0001
0100
0010
1001
0000
1100
0000
0011
,
0000
0110
0000
1010
0001
0100
0001
0010
,
0001
0110
0000
0011
1000
0001
0100
0001
,
0010
1001
0000
0100
0001
0100
0000
1001
,
0010
1001
0000
0100
0001
1010
0001
0100
,
0010
1001
0000
0100
1000
0010
0100
0001
,
0010
1000
0100
0010
0001
0100
0010
1000
,
0010
0100
0001
0010
1000
0010
0100
0001
,
0010
1000
0010
0100
0001
0010
1000
0100
,
0010
0100
0001
0010
1000
0100
0010
0001
,
0100
0010
1000
0001
0100
0010
1000
0100
,
0010
0001
1000
0110
0000
0110
0000
1001
,
0000
0110
0000
0011
0000
1100
0000
0011
,
0000
0101
0000
1010
0000
0110
0000
1001
,
0000
0000
0110
0000
0000
0000
0100
0000
1000
0100
0001
0000
0001
0000
0010
0000
,
0100
0000
1000
0100
1000
0100
0000
0000
0000
0000
1010
0000
0000
0000
0101
0000
,
0000
0011
0000
1100
0000
0110
0000
0101
,
0000
1001
0000
0110
0000
0101
0000
1001
,
0000
0110
0000
1100
0000
0011
0000
0101
,
0000
1100
0000
1010
0000
0101
0000
1001
,
0000
0110
0000
1100
0000
0010
0000
0100
,
0000
0001
0000
0010
0000
0100
0000
1000
,
0000
0000
0010
0000
0000
0000
0100
0000
1000
0100
0001
0000
0001
0000
0010
0000
,
0100
0000
0100
0010
1000
0100
1000
0000
0000
0000
1010
0000
0000
0000
0101
0000
,
0000
0101
0000
1010
0000
1100
0000
0101
,
0000
1010
0000
0101
0000
1100
0000
0110
,
0000
1100
0000
0110
0000
1001
0000
0000
,
0000
1001
0110
1010
0100
0101
0010
1001
,
0100
0110
0001
1100
0010
0011
1000
0110
,
0001
1001
0100
0101
0010
1010
0100
0101
,
0010
0000
0011
0000
0100
0000
1100
0000
0010
0100
0010
0000
0100
0000
1000
0000
,
0010
0000
0100
0010
0100
0010
1000
0000
0100
0000
0110
0000
1000
0000
0011
0000
,
0100
1100
0001
0011
0100
1010
0001
0101
,
0010
0011
1000
1100
0010
0110
0001
1001
,
0100
0000
0010
0000
1000
0000
0100
0000
0100
0000
0100
0000
0000
1000
0100
0010
,
1001
0010
0100
0000
0000
0000
1001
0000
0100
0000
0110
0000
0001
0000
1001
0000
,
0010
0110
1000
1001
0100
0110
1000
0011
,
1000
0110
0001
1100
0001
1100
0100
0011
,
1000
0000
0011
0000
1000
0000
0100
0000
0010
0100
1000
0000
0100
0000
0010
0000
,
0010
0000
0100
1000
0100
0010
0001
0000
0010
0000
1100
0000
0001
0000
1010
0000
,
0100
0011
1000
0101
0010
0110
0100
1001
,
0010
0110
1000
0101
0001
1010
0010
1001
,
0010
0101
1000
0010
1000
0000
1001
0000
,
0000
2002
3003
0000
0000
0000
0000
0000
;
